[G片] 迷情夜 Noches de espera [AVI][851M][英文字幕][115 / 快传]

本帖最后由 imurman 于 2014-7-13 17:08 编辑



◎片  名:迷情夜
◎原  名:Noches de espera / Longing Nights
◎年  份:2013年
◎地  区:西班牙 / 葡萄牙
◎语  言:西班牙语
◎片  长:72分钟
◎类  别:剧情 / 同性
◎IMDB:http://www.imdb.com/title/tt2915500/
◎导  演:Tiago Leão
◎演  员:Ainhoa Azcona / Aviador Deluxe / Carolina Touceda / Damián Mengoni


◎简  介:

       Aitana, Pierrick, Rita & Jorge are all in their twenties & all look for ways to make their nights in the city of Madrid a little less lonely.

       Aitana is a sweet girl trapped in a men’s body; Pierrick is a cute French gay; Rita doesn't much care about her partner, Carolina, & walks through life with no expectations; Jorge is trapped in a relationship with no future: the one he has with Maria.

       Set against a background of drugs, sex, multiple partners & differing sexualities, Longing Nights follows the individual stories of these young people.

       A candid portrait of four relationships highly loaded with eroticism from beginning to end. Four stories told without no borders between fiction & reality.
  1. Noches de espera

  2.     Format : AVI
  3.     Format/Info : Audio Video Interleave
  4.     File size : 851 MiB
  5.     Duration : 1h 12mn
  6.     Overall bit rate : 1 634 Kbps
  7.     Writing application : Lavf54.63.104

  8.   Video #0
  9.     ID : 0
  10.     Format : xvid
  11.     Codec ID : xvid
  12.     Duration : 1h 12mn
  13.     Bit rate : 1 364 Kbps
  14.     Width : 640 pixels
  15.     Height : 360 pixels
  16.     Display aspect ratio : 16:9
  17.     Frame rate : 29.970 fps
  18.     Bits/(Pixel*Frame) : 0.198
  19.     Stream size : 710 MiB (83%)

  20.   Audio #1
  21.     ID : 1
  22.     Format : MPEG Audio
  23.     Format version : Version 1
  24.     Format profile : Layer 3
  25.     Mode : Joint stereo
  26.     Mode extension : MS Stereo
  27.     Codec ID : 55
  28.     Codec ID/Hint : MP3
  29.     Duration : 1h 12mn
  30.     Bit rate mode : Constant
  31.     Bit rate : 256 Kbps
  32.     Channel count : 2 channels
  33.     Sampling rate : 48.0 KHz
  34.     Compression mode : Lossy
  35.     Stream size : 133 MiB (16%)
  36.     Alignment : Aligned on interleaves
  37.     Interleave, duration : 24 ms (0.72 video frame)
  38.     Writing library : LAME3.99.5
复制代码


本帖隐藏的内容需要回复才可以浏览

这是板凳么

TOP

很激情的画面,多谢发布

TOP

下来看看,应该不错吧

TOP

下来看看多谢发布

TOP

回复 1# imurman

谢谢楼主分享

TOP

貌似很激情,嘿嘿

TOP

回复 1# imurman


    感谢分享

TOP

看样子还是不错的

TOP

看图不错,谢谢楼主分享

TOP

感谢分享~~~~

TOP

下来看看,应该不错吧

TOP

回复 1# imurman


    我了个去,新片哦,赶紧坐好……

TOP

let's see it.

TOP

貌似不是什么    帅锅

TOP

看截图有一段是3p的,感谢分享

TOP

西班牙好开放

TOP

试一下

TOP

收藏一下

TOP

西语的貌似很不错

TOP

看起来不错的电影,谢谢分享

TOP

蛮吸引人的海报,支持

TOP

回复 1# imurman


    let me see

TOP

下来看看,应该不错吧

TOP

应该不错吧

TOP

  • QAF三国群英传信息联盟发布平台
  •