Queer As Folk中文站 | 同志亦凡人中文站 | QAF中文站

imurman 发表于 2014-11-7 16:26

上周末 Last Weekend [高清720p MKV 2.8G][快传]

[img]http://image16.poco.cn/mypoco/myphoto/20141022/18/17390288020141022180030071.jpg[/img]


◎片  名:上周末
◎原  名:Last Weekend
◎年  份:2014年
◎地  区:美国
◎语  言:英语
◎片  长:94分钟
◎类  别:剧情 / 同性 / 家庭
◎IMDB:[url=http://www.imdb.com/title/tt2435458/]http://www.imdb.com/title/tt2435458/[/url]  
◎导  演:Tom Dolby, Tom Williams
◎演  员:Patricia Clarkson......Celia Green
             Julio Oscar Mechoso......Hector Castillo
             Zachary Booth...... Theo Green
             Devon Graye......Luke Caswell
             Joseph Cross......Roger Green



◎简  介:

   西莉亚 (Patricia Clarkson 饰) 感觉自己人生处在了一个十字路口上。她和丈夫已经成功跻身美国富人阶层,在加州塔霍湖边有一栋自己的别墅,一对儿子也已长大成人。就在这个劳工节周末,大儿子西奥(Zachary Booth 饰)决定带男友到别墅度假,二儿子罗杰(Joseph Cross 饰)也带着秘密回家。被亲朋好友包围的西莉亚始终觉得生活缺少了什么,直到静谧湖水旁发生的意外惊醒了她。她需要的是放手和向前走......[code]Last.Weekend.2014.720p.WEB-DL.DD5.1.H264-RARBG

Format : Matroska
Format version : Version 4 / Version 2
File size : 2.82 GiB
Duration : 1h 34mn
Overall bit rate : 4 264 Kbps

Video
ID : 1
Format : AVC
Format/Info : Advanced Video Codec
Format profile : Main@L3.1
Format settings, CABAC : Yes
Format settings, ReFrames : 4 frames
Codec ID : V_MPEG4/ISO/AVC
Duration : 1h 34mn
Bit rate : 3 795 Kbps
Nominal bit rate : 4 000 Kbps
Width : 1 280 pixels
Height : 720 pixels
Display aspect ratio : 16:9
Frame rate mode : Constant
Frame rate : 23.976 fps
Color space : YUV
Chroma subsampling : 4:2:0
Bit depth : 8 bits
Scan type : Progressive
Bits/(Pixel*Frame) : 0.172
Stream size : 2.51 GiB (89%)

Audio
ID : 2
Format : AC-3
Format/Info : Audio Coding 3
Mode extension : CM (complete main)
Format settings, Endianness : Big
Codec ID : A_AC3
Duration : 1h 34mn
Bit rate mode : Constant
Bit rate : 384 Kbps
Channel(s) : 6 channels
Channel positions : Front: L C R, Side: L R, LFE
Sampling rate : 48.0 KHz
Bit depth : 16 bits
Compression mode : Lossy
Stream size : 260 MiB (9%)[/code][img]http://imagecurl.com/images/83959753706981911997_thumb.png[/img]

[img]http://imagecurl.com/images/23585578448707629281_thumb.png[/img]

[img]http://imagecurl.com/images/40572587379876183332_thumb.png[/img]

[img]http://imagecurl.com/images/06158822133545953569_thumb.png[/img]

[img]http://imagecurl.com/images/53575652711167155606_thumb.png[/img]

[img]http://imagecurl.com/images/54389036715331023537_thumb.png[/img]

[img]http://imagecurl.com/images/69867564057105185999_thumb.png[/img]

[img]http://imagecurl.com/images/67169218440686741257_thumb.png[/img]


**** Hidden Message *****

slooota 发表于 2014-11-7 18:29

感觉很好看的样子

lipingfan 发表于 2014-11-7 19:52

感谢楼主的分享!多谢!

echo3930 发表于 2014-11-7 20:00

先收藏了

andy3155530 发表于 2014-11-7 20:11

真的假的 这么好看

1002892306 发表于 2014-11-7 20:40

xiexiefenxiang

gah 发表于 2014-11-7 20:40

上周看了这部,很喜欢,很安静

ios5.0.1 发表于 2014-11-7 21:16

感謝分享

mouk158158 发表于 2014-11-7 21:31

收下了,楼主辛苦了

huo_hong 发表于 2014-11-7 22:12

谢谢分享

bigband 发表于 2014-11-7 22:27

主角长得不错

olaf_u 发表于 2014-11-7 22:28

谢谢分享

灰色湖水 发表于 2014-11-7 22:59

看起来好揪心~

nole小德 发表于 2014-11-7 23:29

kanyikan

aaas 发表于 2014-11-7 23:32

thanks.......

minjunge 发表于 2014-11-7 23:54

看起来好揪心~

df327329 发表于 2014-11-7 23:57

谢谢  辛苦了~

hungkk17 发表于 2014-11-7 23:59

謝謝     大大      分享

longfly 发表于 2014-11-8 00:10

感谢分享!!!!~~~~~~~~~~

冰弑 发表于 2014-11-8 00:20

感谢分享。下来看看

xuezhen0214 发表于 2014-11-8 02:45

Look look should be very nice

singleqidi 发表于 2014-11-8 04:05

感谢各位大大们的分享

castal 发表于 2014-11-8 04:43

好电影

yoyolong 发表于 2014-11-8 05:35

喜欢高清版本的

zzxxdd 发表于 2014-11-8 07:56

想看看怎么样啊{:2_816:}好看吗{:2_806:}

xxxd 发表于 2014-11-8 08:19

非常喜欢  谢谢分享

迪迪超人 发表于 2014-11-8 09:39

收啊!有没有网盘的

weikeduo 发表于 2014-11-8 10:24

谢谢楼主分享

propofol 发表于 2014-11-8 13:09

来看看这个片子吧~~

deanass 发表于 2014-11-8 13:35

喜欢Patricia Clarkson

songlin 发表于 2014-11-8 13:44

kankankankankankankan

windeagle 发表于 2014-11-8 14:46

海报非常漂亮!

Mr_Sherlock 发表于 2014-11-8 15:05

大片喽

VeraCLuk 发表于 2014-11-8 15:46

应该挺不错的,谢谢分享~~

小白百 发表于 2014-11-8 16:46

感谢分享

stantai 发表于 2014-11-8 16:46

tks for sharing

唐玄之宗 发表于 2014-11-8 16:51

求简介

lilo 发表于 2014-11-8 18:17

谢谢楼主,下载中

酷歌 发表于 2014-11-8 18:35

看过的说说,好看吗。

mylzz 发表于 2014-11-8 19:39

谢谢楼主分享

转角路人 发表于 2014-11-8 20:00

谢谢分享。

nilson 发表于 2014-11-8 20:41

很棒的一部影片,家庭的亲情最可贵

gangjun 发表于 2014-11-8 20:50

thanks for sharing

triangle718 发表于 2014-11-8 21:37

感觉很好看的样子

MR92910 发表于 2014-11-8 21:47

谢谢LZ的分享 先看看 还不错

天空的蛇 发表于 2014-11-8 23:59

看看 感谢字幕组

yulei149 发表于 2014-11-9 02:34

好像要为了男主们看看这部 谢谢分享{:2_816:}

inturyl 发表于 2014-11-9 05:22

这演员好熟。。

madonna40 发表于 2014-11-9 09:47

不错的片子   收藏了

gztz 发表于 2014-11-9 10:26

美国片好看

页: [1] 2 3 4 5 6 7 8 9 10

Powered by 同志亦凡人中文站手机版   © 2001-2016

  • QAF三国群英传信息联盟发布平台
  •